It is currently Mon Jun 26, 2017 4:42 am


All times are UTC [ DST ]




Forum locked This topic is locked, you cannot edit posts or make further replies.  [ 4 posts ] 
Author Message
 Post subject: Videos will not play after updating to v6 Beta11
PostPosted: Wed Feb 10, 2016 7:30 am 

Joined: Wed Feb 10, 2016 7:19 am
Posts: 6
I had a freshly formatted windows 7 PC running AlbumPlayer 5.3 and the K-Lite codec pack standard. All 700 of my MP4 video clips ran and played fine when added to the playlist window.

When I backed up my database and installed V6, it plays mp3 files fine but all MP4 video files refuse to play.

No error is given when they are added to the play list, it just wont start playing them..... Does anyone have any idea what I can do to fix this ? :)

The MP4 files are in this format:

General
Complete name : D:\Personal\Music\AlbumPlayerData\Music\Megan Trainor\Megan Trainor\Dear Future Husband.mp4
Format : MPEG-4
Format profile : Base Media
Codec ID : isom
File size : 82.4 MiB
Duration : 3mn 20s
Overall bit rate : 3 439 Kbps
Writing application : Lavf54.63.104

Video
ID : 1
Format : AVC
Format/Info : Advanced Video Codec
Format profile : High@L4
Format settings, CABAC : Yes
Format settings, ReFrames : 3 frames
Codec ID : avc1
Codec ID/Info : Advanced Video Coding
Duration : 3mn 20s
Bit rate : 3 307 Kbps
Width : 1 920 pixels
Height : 1 080 pixels
Display aspect ratio : 16:9
Frame rate mode : Variable
Frame rate : 23.976 fps
Minimum frame rate : 23.974 fps
Maximum frame rate : 23.981 fps
Color space : YUV
Chroma subsampling : 4:2:0
Bit depth : 8 bits
Scan type : Progressive
Bits/(Pixel*Frame) : 0.067
Stream size : 79.2 MiB (96%)

Audio
ID : 2
Format : AAC
Format/Info : Advanced Audio Codec
Format profile : LC
Codec ID : 40
Duration : 3mn 20s
Bit rate mode : Constant
Bit rate : 126 Kbps
Channel(s) : 2 channels
Channel positions : Front: L R
Sampling rate : 44.1 KHz
Compression mode : Lossy
Stream size : 3.01 MiB (4%)

If anyone knows a fix I would be very grateful :)


Top
Offline Profile  
 
 Post subject: Re: Videos will not play after updating to v6 Beta11
PostPosted: Thu Feb 11, 2016 9:31 pm 
AlbumPlayer Developer
User avatar

Joined: Wed Feb 26, 2003 5:09 pm
Posts: 4754
Did you install K-Lite codec pack? That is always my advise to get it properly playing the video's


Top
Offline Profile  
 
 Post subject: Re: Videos will not play after updating to v6 Beta11
PostPosted: Sat Feb 27, 2016 4:24 am 

Joined: Wed Feb 10, 2016 7:19 am
Posts: 6
Yes, I had installed K-Lite codec pack standard and the videos were all playing fine, only when I installed the v6 beta 11 over the top of v5.3 did they no longer work....

(Sorry for the delay in response as I have been in hospital :)


Top
Offline Profile  
 
 Post subject: Re: Videos will not play after updating to v6 Beta11
PostPosted: Sun Feb 28, 2016 10:35 am 
AlbumPlayer Developer
User avatar

Joined: Wed Feb 26, 2003 5:09 pm
Posts: 4754
I made a video setup recommendation page:

viewtopic.php?f=4&t=3701


Top
Offline Profile  
 
Display posts from previous:  Sort by  
Forum locked This topic is locked, you cannot edit posts or make further replies.  [ 4 posts ]  Moderators: Jan, xblkx, Peter van der Burg

All times are UTC [ DST ]


Who is online

Users browsing this forum: No registered users and 1 guest


You cannot post new topics in this forum
You cannot reply to topics in this forum
You cannot edit your posts in this forum
You cannot delete your posts in this forum
You cannot post attachments in this forum

Search for:
Jump to:  
cron
Powered by phpBB © 2000, 2002, 2005, 2007 phpBB Group
Theme created StylerBB.net